What Dreams May Come 1998 BRRip XviD MP3-RARBG (download torrent) - TPB

What Dreams May Come 1998 BRRip XviD MP3-RARBG 

What Dreams May Come 1998 BRRip XviD MP3-RARBG
Type:
Movies
Files:
2
Size:
1341.44 MiB

Info:
Spoken language(s):
Tag(s):

Uploaded:
2016-01-26 08:45:47
By:
z0n321 VIP

Seeders:
0
Leechers:
1
 
Info Hash:
 
FF9834185B76779C83F30AA994679C91748CC393




(Problems with magnets links are fixed by upgrading your torrent client!)
What Dreams May Come 1998 BRRip XviD MP3-RARBG

Chris Neilson dies to find himself in a heaven more amazing than he could have ever dreamed of. There is one thing missing: his wife...


							
https://rarbg.to
What.Dreams.May.Come.1998.BRRip.XviD.MP3-RARBG

//dyncdn.me/posters2/f/ff9834185b76779c83f30aa994679c91748cc393.jpg
Screens :

http://imagecurl.com/images/85164141293333684923_thumb.png

http://imagecurl.com/images/39079740675756538558_thumb.png

http://imagecurl.com/images/29433109900399538717_thumb.png

http://imagecurl.com/images/05400429592182388968_thumb.png

http://imagecurl.com/images/08464621607447704772_thumb.png
Mediainfo :

Video
ID : 0
Format : MPEG-4 Visual
Format profile : [email protected]
Format settings, BVOP : No
Format settings, QPel : No
Format settings, GMC : No warppoints
Format settings, Matrix : Default (H.263)
Codec ID : XVID
Codec ID/Hint : XviD
Duration : 1h 53mn
Bit rate : 1 445 Kbps
Width : 720 pixels
Height : 306 pixels
Display aspect ratio : 2.35:1
Frame rate : 23.976 fps
Color space : YUV
Chroma subsampling : 4:2:0
Bit depth : 8 bits
Scan type : Progressive
Compression mode : Lossy
Bits/(Pixel*Frame) : 0.274
Stream size : 1.15 GiB (87%)
Title : RARBG.COM - What.Dreams.May.Come.1998.BRRip.XviD.MP3-RARBG
Writing library : Lavc56.60.100

Audio
ID : 1
Format : MPEG Audio
Format version : Version 1
Format profile : Layer 3
Mode : Joint stereo
Mode extension : MS Stereo
Codec ID : 55
Codec ID/Hint : MP3
Duration : 1h 53mn
Bit rate mode : Constant
Bit rate : 192 Kbps
Channel(s) : 2 channels
Sampling rate : 48.0 KHz
Compression mode : Lossy
Stream size : 156 MiB (12%)
Alignment : Aligned on interleaves
Interleave, duration : 24 ms (0.58 video frame)
Interleave, preload duration : 24 ms
Title : RARBG.COM - What.Dreams.May.Come.1998.BRRip.XviD.MP3-RARBG
Writing library : LAME3.99.5



						
									

Comments