The.Proposition.2005.BRrip.Xvid.Ac3-MiLLENiUM (download torrent) - TPB

The.Proposition.2005.BRrip.Xvid.Ac3-MiLLENiUM 

The.Proposition.2005.BRrip.Xvid.Ac3-MiLLENiUM
Type:
Movies
Files:
2
Size:
1597.44 MiB

Info:
Spoken language(s):
Tag(s):

Uploaded:
2016-01-26 08:45:47
By:
TryMeS VIP

Seeders:
3
Leechers:
3
 
Info Hash:
 
03C5A408D7E7F7D6EEAF7F9804EC064C035D010F




(Problems with magnets links are fixed by upgrading your torrent client!)
The.Proposition.2005.BRrip.Xvid.Ac3-MiLLENiUM

A lawman apprehends a notorious outlaw and gives him nine days to kill his older brother, or else they'll execute his younger brother.


							The.Proposition.2005.BRrip.Xvid.Ac3-MiLLENiUM

//dyncdn.me/posters2/0/03c5a408d7e7f7d6eeaf7f9804ec064c035d010f.jpg

Title: The Proposition (2005)
IMDB Rating: 7.4/10
Genres: Crime , Drama , Western 
Actors: Richard Wilson , Noah Taylor , Jeremy Madrona , Jae Mamuyac , Guy Pearce , Mick Roughan , Shane Watt , Ray Winstone , Robert Morgan , David Gulpilil , Bryan Probets , Oliver Ackland , Danny Huston , David Vallon , Daniel Parker
Runtime: 104
Year: 2005
Plot: 
Rural Australia in the late nineteenth century: Capt. Stanley and his men capture two of the four Burns brothers| Charlie and Mike. Their gang is held responsible
for attacking the Hopkins farm| raping pregnant Mrs. Hopkins and murdering the whole family. Arthur Burns| the eldest brother and the gang's mastermind| remains on
the loose and has retreated to a mountain hideout. Capt. Stanley's proposition to Charlie is to gain pardon and - more importantly - save his beloved younger brother
Mike from the gallows by finding and killing Arthur within nine days. [mediainfo]


Format : AVI
Format/Info : Audio Video Interleave
File size : 1.52 GiB
Duration : 1h 43mn
Overall bit rate : 2 091 Kbps

Video
ID : 0
Format : MPEG-4 Visual
Format profile : Advanced [email protected]
Format settings, BVOP : 2
Format settings, QPel : Yes
Format settings, GMC : No warppoints
Format settings, Matrix : Default (MPEG)
Codec ID : XVID
Codec ID/Hint : XviD
Duration : 1h 43mn
Bit rate : 1 700 Kbps
Width : 720 pixels
Height : 304 pixels
Display aspect ratio : 2.35:1
Frame rate : 24.000 fps
Color space : YUV
Chroma subsampling : 4:2:0
Bit depth : 8 bits
Scan type : Progressive
Compression mode : Lossy
Bits/(Pixel*Frame) : 0.324
Stream size : 1.23 GiB (81%)
Writing library : XviD 1.2.1 (UTC 2008-12-04)

Audio
ID : 1
Format : AC-3
Format/Info : Audio Coding 3
Mode extension : CM (complete main)
Format settings, Endianness : Big
Codec ID : 2000
Duration : 1h 43mn
Bit rate mode : Constant
Bit rate : 384 Kbps
Channel(s) : 6 channels
Channel positions : Front: L C R, Side: L R, LFE
Sampling rate : 48.0 KHz
Bit depth : 16 bits
Compression mode : Lossy
Stream size : 285 MiB (18%)
Alignment : Aligned on interleaves
Interleave, duration : 64 ms (1.54 video frames)
Interleave, preload duration : 192 ms
Title : T2_Audio - English


[/mediainfo]


						
									

Comments