Intruders 2015 WEB-DL x264-RARBG (download torrent) - TPB

Intruders 2015 WEB-DL x264-RARBG 

Intruders 2015 WEB-DL x264-RARBG
Type:
Movies
Files:
2
Size:
790.03  MiB

Info:
Spoken language(s):
English
Tag(s):

Uploaded:
2016-01-26 08:45:21
By:
z0n321 VIP

Seeders:
0
Leechers:
0
 
Info Hash:
 
2A7F673EFB3C5B43628C2B06E0AAB02E552A7DBC




(Problems with magnets links are fixed by upgrading your torrent client!)
Intruders 2015 WEB-DL x264-RARBG

Anna suffers from agoraphobia so crippling that when a trio of criminals break into her house, she cannot bring herself to flee. But what the intruders don't realize is that agoraphobia is not her only psychosis.


							
https://rarbg.to
Intruders.2015.WEB-DL.x264-RARBG

//dyncdn.me/posters2/2/2a7f673efb3c5b43628c2b06e0aab02e552a7dbc.jpg
Screens :

http://imagecurl.com/images/86429980569647204838_thumb.png

http://imagecurl.com/images/16706655314650705468_thumb.png

http://imagecurl.com/images/02751715594826975177_thumb.png

http://imagecurl.com/images/32573391337414079802_thumb.png

http://imagecurl.com/images/78320749630519690719_thumb.png

http://imagecurl.com/images/27010023477006709760_thumb.png
Mediainfo :

Video
ID : 1
Format : AVC
Format/Info : Advanced Video Codec
Format profile : [email protected]
Format settings, CABAC : Yes
Format settings, ReFrames : 5 frames
Codec ID : avc1
Codec ID/Info : Advanced Video Coding
Duration : 1h 30mn
Bit rate : 1 100 Kbps
Width : 720 pixels
Height : 304 pixels
Display aspect ratio : 2.40:1
Frame rate mode : Constant
Frame rate : 23.976 (23976/1000) fps
Color space : YUV
Chroma subsampling : 4:2:0
Bit depth : 8 bits
Scan type : Progressive
Bits/(Pixel*Frame) : 0.210
Stream size : 703 MiB (89%)
Title : Intruders.2015.WEB-DL.x264-RARBG
Writing library : x264 core 148 r2601 a0cd7d3
Encoding settings : cabac=1 / ref=5 / deblock=1:-2:-2 / analyse=0x3:0x113 / me=umh / subme=8 / psy=1 / psy_rd=0.90:0.00 / mixed_ref=1 / me_range=16 / chroma_me=1 / trellis=1 / 8x8dct=1 / cqm=0 / deadzone=21,11 / fast_pskip=1 / chroma_qp_offset=-2 / threads=8 / lookahead_threads=2 / sliced_threads=0 / nr=0 / decimate=1 / interlaced=0 / bluray_compat=0 / constrained_intra=0 / bframes=3 / b_pyramid=2 / b_adapt=2 / b_bias=0 / direct=3 / weightb=1 / open_gop=0 / weightp=2 / keyint=250 / keyint_min=25 / scenecut=40 / intra_refresh=0 / rc_lookahead=50 / rc=abr / mbtree=1 / bitrate=1100 / ratetol=1.0 / qcomp=0.60 / qpmin=0 / qpmax=69 / qpstep=4 / vbv_maxrate=31250 / vbv_bufsize=31250 / nal_hrd=none / filler=0 / ip_ratio=1.40 / aq=1:1.00
Language : English

Audio
ID : 2
Format : AAC
Format/Info : Advanced Audio Codec
Format profile : LC
Codec ID : 40
Duration : 1h 30mn
Duration_LastFrame : 43ms
Bit rate mode : Variable
Bit rate : 128 Kbps
Maximum bit rate : 31.3 Mbps
Channel(s) : 2 channels
Channel positions : Front: L R
Sampling rate : 48.0 KHz
Frame rate : 46.875 fps (1024 spf)
Compression mode : Lossy
Stream size : 82.6 MiB (10%)
Title : Intruders.2015.WEB-DL.x264-RARBG
Language : English
Default : Yes
Alternate group : 1



						
									

Comments