Waking Life 2001 720p BluRay H264 AAC-RARBG (download torrent) - TPB

Waking Life 2001 720p BluRay H264 AAC-RARBG 

Waking Life 2001 720p BluRay H264 AAC-RARBG
Type:
HD - Movies
Files:
2
Size:
1249.28 MiB

Info:
Spoken language(s):
English
Tag(s):

Uploaded:
2016-01-26 08:45:20
By:
z0n321 VIP

Seeders:
14
Leechers:
1
 
Info Hash:
 
B836DD323A8606F568C1BD48D5E4C3F6E74F0C44




(Problems with magnets links are fixed by upgrading your torrent client!)
Waking Life 2001 720p BluRay H264 AAC-RARBG

A man shuffles through a dream meeting various people and discussing the meanings and purposes of the universe.


							
https://rarbg.to
Waking.Life.2001.720p.BluRay.H264.AAC-RARBG

//dyncdn.me/posters2/b/b836dd323a8606f568c1bd48d5e4c3f6e74f0c44.jpg
Screens :

http://imagecurl.com/images/47354613304256075106_thumb.png

http://imagecurl.com/images/58937650788138590502_thumb.png

http://imagecurl.com/images/83638122631621353899_thumb.png

http://imagecurl.com/images/69495463858023775336_thumb.png

http://imagecurl.com/images/05521738096060804534_thumb.png
Mediainfo :

Video
ID : 1
Format : AVC
Format/Info : Advanced Video Codec
Format profile : High@L4.1
Format settings, CABAC : Yes
Format settings, ReFrames : 4 frames
Codec ID : avc1
Codec ID/Info : Advanced Video Coding
Duration : 1h 40mn
Bit rate : 1 500 Kbps
Width : 1 280 pixels
Height : 694 pixels
Display aspect ratio : 1.85:1
Frame rate mode : Constant
Frame rate : 23.976 (23976/1000) fps
Color space : YUV
Chroma subsampling : 4:2:0
Bit depth : 8 bits
Scan type : Progressive
Bits/(Pixel*Frame) : 0.070
Stream size : 1.06 GiB (87%)
Writing library : x264 core 148 r2638M 7599210
Encoding settings : cabac=1 / ref=4 / deblock=1:-1:-1 / analyse=0x3:0x113 / me=umh / subme=9 / psy=1 / psy_rd=1.00:0.15 / mixed_ref=1 / me_range=24 / chroma_me=1 / trellis=2 / 8x8dct=1 / cqm=0 / deadzone=21,11 / fast_pskip=1 / chroma_qp_offset=-3 / threads=32 / lookahead_threads=4 / sliced_threads=0 / nr=0 / decimate=1 / interlaced=0 / bluray_compat=0 / constrained_intra=0 / bframes=3 / b_pyramid=2 / b_adapt=2 / b_bias=0 / direct=3 / weightb=1 / open_gop=0 / weightp=2 / keyint=250 / keyint_min=25 / scenecut=40 / intra_refresh=0 / rc_lookahead=50 / rc=2pass / mbtree=1 / bitrate=1500 / ratetol=1.0 / qcomp=0.60 / qpmin=0 / qpmax=69 / qpstep=4 / cplxblur=20.0 / qblur=0.5 / vbv_maxrate=31250 / vbv_bufsize=31250 / nal_hrd=none / filler=0 / ip_ratio=1.40 / aq=3:1.00
Encoded date : UTC 2016-01-20 02:05:04
Tagged date : UTC 2016-01-20 02:05:04

Audio
ID : 2
Format : AAC
Format/Info : Advanced Audio Codec
Format profile : LC
Codec ID : 40
Duration : 1h 40mn
Bit rate mode : Constant
Bit rate : 224 Kbps
Channel(s) : 2 channels
Channel(s)_Original : 6 channels
Channel positions : Front: L C R, Side: L R, LFE
Sampling rate : 48.0 KHz
Frame rate : 46.875 fps (1024 spf)
Compression mode : Lossy
Stream size : 161 MiB (13%)
Language : English
Default : Yes
Alternate group : 1
Encoded date : UTC 2016-01-20 02:05:04
Tagged date : UTC 2016-01-20 02:05:04



						
									

Comments